Lick Library - Learn To Play 80s Metal by Danny Gill 2013

Lick Library - Learn To Play 80s Metal by Danny Gill 2013 screenshot

AVI | XviD 868kbps | English | 688x368 | 25fps | 2h 38 mins | MP3 stereo 128kbps | 1.19 GB
Genre: Video Training


Learn to play 80s Metal will teach you five classic 80s Metal songs, note for note, featuring metal guitar bands such as Poison, Kiss and Skid Row.

KISS - Heaven's On Fire
Intro, Verse & Pre Chorus (5:56)
Chorus, Bridge & Solo (6:24)
Performance (3:16)

POISON - Every Rose Has Its Thorn
Acoustic Guitar Parts (11:56)
Electric Guitar Parts (8:33)
Performance (4:20)

ACCEPT - Fast As A Shark
Rhythm Parts (11:05)
Main Solo (11:28)
Harmony Guitar (7:43)
Performance (3:37)

SKID ROW - 18 And Life
Intro, 1st Verse, Pre Chorus & Chorus (10:42)
2nd Verse & Bridge (7:39)
Main Solo (5:56)
Outro Solo (4:27)
Performance (3:55)

RATT - Round And Round
Rhythm Parts (11:54)
Guitar Solo (13:37)
Performance (4:47)

Mediainfo:

Format : AVI
Format/Info : Audio Video Interleave
File size : 98.0 MiB
Duration : 13mn 37s
Overall bit rate : 1 006 Kbps
Writing application : VirtualDubMod 1.5.10.2 (build 2540/release)
Writing library : VirtualDubMod build 2540/release
Video #0
ID : 0
Format : MPEG-4 Visual
Format profile : AdvancedSimple@L5
Format settings, BVOP : Yes
Format settings, QPel : No
Format settings, GMC : No warppoints
Format settings, Matrix : Default (MPEG)
Codec ID : XVID
Codec ID/Hint : XviD
Duration : 13mn 37s
Bit rate : 868 Kbps
Width : 688 pixels
Height : 368 pixels
Display aspect ratio : 1.870
Frame rate : 25.000 fps
Resolution : 24 bits
Colorimetry : 4:2:0
Scan type : Progressive
Bits/(Pixel*Frame) : 0.137
Stream size : 84.6 MiB (86%)
Writing library : XviD 64
Audio #1
ID : 1
Format : MPEG Audio
Format version : Version 1
Format profile : Layer 3
Codec ID : 55
Codec ID/Hint : MP3
Duration : 13mn 37s
Bit rate mode : Constant
Bit rate : 128 Kbps
Channel(s) : 2 channels
Sampling rate : 48.0 KHz
Resolution : 16 bits
Stream size : 12.5 MiB (13%)
Alignment : Aligned on interleaves
Interleave, duration : 40 ms (1.00 video frame)
Interleave, preload duration : 504 ms
Writing library : LAME3.99r
Encoding settings : -m j -V 4 -q 0 -lowpass 16 -b 128